Skip to main content

Furthur Live at Mann Music Center on 2010-07-10

by Furthur



Furthur
July 10, 2010
Mann Music Center
loc in lawn
Philadelphia, PA, USA


source: Nak 100 mic\'s w/cp4 Shotguns > XLR/Rca 1/4\" cables> D5> JB3> Cdwav> audacity (amplify db)>Cdwave
Recorded at 44.1 kHz 16 bit (CD quality)

Disc 1:
Set I:
01. Crowd/Tuning
02. Golden Road to Unlimited Devotion >
03. Here Comes Sunshine,
04. Jack Straw >
05. Muli Guli >
06. Dear Mr. Fantasy >
07. Corrina,
08. Satisfaction,
09. Viola Lee Blues

Disc 2:
Set II:
01. Crowd/Tuning
02. Playin in the Band >
03. Althea,
04. Cassidy,
05. China Cat Sunflower >
06. I Know You Rider,
07. Eyes of the World >

Disc 3: (set II con't)
01. Days Between,
02. Help on the Way >
03. Slipknot! >
04. Franklin's Tower
05. Crowd

Encore:
06. Donor Rap
07. One More Saturday Night

Taped by Joseph Banaszewski
Edited by Jeremy Banaszewski


Collection Furthur
Band/Artist Furthur
Venue Mann Music Center
Location Philadelphia, PA

Source Nak 100 mic\'s w/cp4 Shotguns > XLR/Rca 1/4\" cables> D5> JB3
Lineage Cdwav> audacity (amplify db)>Cdwave Recorded at 44.1 kHz 16 bit (CD quality)
Taped by Joseph Banaszewski
Transferred by Jeremy Banaszewski

Notes

source: Nak 100 mic\'s w/cp4 Shotguns > XLR/Rca 1/4\" cables> D5> JB3> Cdwav> audacity (amplify db)>Cdwave
Recorded at 44.1 kHz 16 bit (CD quality)
Taped by Joseph Banaszewski
Edited by Jeremy Banaszewski



The Band:

Phil Lesh - bass
Bob Weir - guitar & vocals
Jeff Chimenti - keyboards
John Kadlecik -guitar & vocals
Joe Russo - drums

length expanded size cdr WAVE problems fmt ratio filename
2:07.02 22407548 B --- -- ---xx flac 0.4654 furthurnak2010-07-10d1t01.flac
5:57.29 63043052 B --- -- ---xx flac 0.4845 furthurnak2010-07-10d1t02.flac
10:21.52 109666748 B --- -- ---xx flac 0.4835 furthurnak2010-07-10d1t03.flac
8:00.08 84690860 B --- -- ---xx flac 0.5278 furthurnak2010-07-10d1t04.flac
8:46.30 92857004 B --- -- ---xx flac 0.5273 furthurnak2010-07-10d1t05.flac
7:03.69 74779532 B --- -- ---xx flac 0.5242 furthurnak2010-07-10d1t06.flac
14:59.17 158623628 B --- -- ---xx flac 0.5140 furthurnak2010-07-10d1t07.flac
8:01.62 84994268 B --- -- ---xx flac 0.5351 furthurnak2010-07-10d1t08.flac
8:39.09 91573948 B -b- -- ---xx flac 0.5137 furthurnak2010-07-10d1t09.flac
2:45.36 29190716 B --- -- ---xx flac 0.4621 furthurnak2010-07-10d2t01.flac
14:46.06 156304556 B --- -- ---xx flac 0.5018 furthurnak2010-07-10d2t02.flac
12:38.68 133871180 B --- -- ---xx flac 0.5135 furthurnak2010-07-10d2t03.flac
11:01.51 116720396 B --- -- ---xx flac 0.5047 furthurnak2010-07-10d2t04.flac
7:05.72 75139388 B --- -- ---xx flac 0.5288 furthurnak2010-07-10d2t05.flac
9:45.27 103257548 B --- -- ---xx flac 0.5425 furthurnak2010-07-10d2t06.flac
17:22.14 183841772 B --- -- ---xx flac 0.5024 furthurnak2010-07-10d2t07.flac
12:37.70 133699484 B --- -- ---xx flac 0.4755 furthurnak2010-07-10d3t01.flac
4:58.13 52597820 B --- -- ---xx flac 0.5303 furthurnak2010-07-10d3t02.flac
5:52.11 62118716 B --- -- ---xx flac 0.5255 furthurnak2010-07-10d3t03.flac
10:33.73 111832940 B --- -- ---xx flac 0.5478 furthurnak2010-07-10d3t04.flac
2:37.54 27821852 B --- -- ---xx flac 0.4831 furthurnak2010-07-10d3t05.flac
1:53.08 19952060 B --- -- ---xx flac 0.4765 furthurnak2010-07-10d3t06.flac
5:02.03 53279900 B --- -- ---xx flac 0.5617 furthurnak2010-07-10d3t07.flac
192:57.34 2042264916 B 0.5126 (23 files)

No errors occured.

Reviews

Reviewer: Dance Baby - - December 3, 2013
Subject: cool beans
dance dance dance,love how you captured the moment. couldn't go, but I felt like I was there!
Reviewer: E.R.C. Iceman! - - November 1, 2010
Subject: Furthur lays it down!
Great show Philly style! Intense set lists!!!! Talent packed jams! Great recording!!!!!!!!!
Reviewer: PHILLYW - - August 11, 2010
Subject: Rechill up and down the spine
Thanks for the post. Quality was fine enought to recreate the chills and smiles, especially during bridge China to Rider. Keep up the great work!!
Reviewer: diprince - - August 4, 2010
Subject: Great music, great songs, great vibe
After a mishap with their equipment truck (which Phil explained to the crowd before the show), the band didn't get started until about 8:30, an hour after scheduled time. But boy did they make up for it. Counting a half-hour intermission from 9:30 to 10, they played till after 12:30 with nonstop energy. The first set was cooking (what a Straw, man), but the second set was ridiculous. Great to hear Phil on Eyes, the Althea-Cassidy was a rolling cloud that lifted you up to levitate for a while, and the China Cat Rider was downright spiritual.
And might I just add ...

Phil droppin bombs!!!!!!!
Reviewer: Shiva Ho - - August 3, 2010
Subject: Nak's CP4 Rule!
Been waiting for the Nak Shotgun versions to appear.. What a great couple of shows these were.

Thanks Guys it was fun hanging out with you in the taper section. How'd the vid turn out?
DOWNLOAD OPTIONS
In Collection
Furthur
In Collection
Live Music Archive
Uploaded by
ekoostikal
on 8/2/2010
Views
4,651
Favorites
9
Reviews
5
PEOPLE ALSO FOUND
Furthur
by Furthur
675
1
2
( 2 reviews )
Source: :Beyerdynamic MC930's(Matched Stereo Pair)(DIN)>Canare Cables> Marantz OCM-PMD661 @16/44.1khz
Furthur
by Furthur
2,348
3
0
Source: Schoeps MK22>kwon-NOS>KC5>CMC6>V2>KindKables XLR-mini XLR>744T (HPF 0) 24/48
Furthur
by Furthur
5,068
5
5
( 5 reviews )
Source: Schoeps CCM4V'S(din)>Lunatec V2>Benchmark AD2K> Sound Devices 722 (24/48) OTS/BOB/DFC/KFC/ZFC/AARP OTS, 8' High
Furthur
2,973
7
3
( 3 reviews )
Source: Superlux CM-H8K(omni capsules)> XLR> Edirol UA5 Oade digimod> Optical Cable> Nomad Jukebox 3> Audacity > CD wave editor
Furthur
by Furthur
6,755
7
8
( 8 reviews )
Source: Schoeps CCM4V'S(din)>Lunatec V2>Benchmark AD2K> Sound Devices 722 (24/48) FOB/DLFC/KFC/ZFC/AARP Balcony Center, Row A, Seat 201
Furthur
by Furthur
11,698
7
12
( 12 reviews )
Source: Schoeps CCM4V'S(din)>Lunatec V2>Benchmark AD2K> Sound Devices 722 (24/48) BOB/DFC/KFC/ZFC/AARP Row N, Between Seats 401 & 402, 6 1/2' High
Furthur
by Furthur
7,742
9
22
( 22 reviews )
Source: Milab VM-44 Link -> Lunatec V2 -> Korg MR-1000 (1bit/2.8MHz DSD)
Furthur
by Furthur
4,651
9
5
( 5 reviews )
Source: Nak 100 mic\'s w/cp4 Shotguns > XLR/Rca 1/4\" cables> D5> JB3
Furthur
by Furthur
4,708
14
27
( 27 reviews )
Source: Schoeps CCM4V'S(din)>Lunatec V2>Benchmark AD2K> Sound Devices 722
Furthur
by Furthur
11,762
11
10
( 10 reviews )
Source: Schoeps CCM4V'S(din)>Lunatec V2>Benchmark AD2K> Sound Devices 722 (24/48)